Schiller - Swan Lake mp3 flac download

Schiller - Swan Lake mp3 flac

Free Download links


Schiller - Swan Lake .zip
ZIP archive full MP3 version


1535 downloads at 34 mb/s

Schiller - Swan Lake .zip
ZIP archive full FLAC version


1698 downloads at 32 mb/s

Size ZIP MP3 version: 1535 mb
Size ZIP FLAC version: 1698 mb

Tracklist Hide Credits

1 Swan Lake (Video Version)
Oboe – Albrecht Mayer
3:41

Companies, etc.

  • Phonographic Copyright (p) – Deutsche Grammophon GmbH
  • Copyright (c) – Deutsche Grammophon GmbH
  • Record Company – Universal Music

Credits

  • Producer – Christopher von Deylen

Notes

This track was never released as a real Single, but nethertheless the shorter Video Version was released officially as Video-Clip on iTunes (M4V video) and musicload.de (WMV video).

"SWAN LAKE" was also listed for few weeks in official German MediaControl Single Charts, so it has to be listed in Singles...

Video resolution is 640x284 Pixels, audio AAC quality is 44,1 kHz / 256 kbps.

==============================================

Exact audio/video data (iTunes release):

Format : MPEG-4
Codec ID : M4V
File size : 48.4 MiB
Duration : 3mn 41s
Overall bit rate : 1 832 Kbps
Movie name : Swan Lake
Performer : Schiller
Genre : Pop
ContentType : Music Video
Recorded date : UTC 2013-08-30 07:00:00
Encoded date : UTC 2013-09-11 10:35:45
Tagged date : UTC 2013-09-11 10:35:45
Copyright : ℗ (C) 2013 Deutsche Grammophon GmbH, Berlin
Cover : Yes
Rating : None
AppleStoreAccount : xxx
AppleStoreCatalogID : 704319275
AlbumTitleID : 141656466
GenreID : 1614
AppleStoreCountry : Germany
PurchaseDate : 2013-09-15 08:08:59

Video
ID : 1
Format : AVC
Format/Info : Advanced Video Codec
Format profile : [email protected]
Format settings, CABAC : No
Format settings, ReFrames : 1 frame
Codec ID : avc1
Codec ID/Info : Advanced Video Coding
Duration : 3mn 41s
Bit rate : 1 538 Kbps
Width : 640 pixels
Height : 284 pixels
Display aspect ratio : 2.25:1
Frame rate mode : Constant
Frame rate : 25.000 fps
Color space : YUV
Chroma subsampling : 4:2:0
Bit depth : 8 bits
Scan type : Progressive
Bits/(Pixel*Frame) : 0.339
Stream size : 40.7 MiB (84%)
Language : English
Encoded date : UTC 2013-09-11 10:35:45
Tagged date : UTC 2013-09-11 10:35:45
Color primaries : BT.601 NTSC
Transfer characteristics : BT.709
Matrix coefficients : BT.601

Audio
ID : 2
Format : AAC
Format/Info : Advanced Audio Codec
Format profile : LC
Codec ID : 40
Duration : 3mn 41s
Source duration : 3mn 41s
Bit rate mode : Constant
Bit rate : 256 Kbps
Channel count : 2 channels
Channel positions : Front: L R
Sampling rate : 44.1 KHz
Compression mode : Lossy
Stream size : 6.60 MiB (14%)
Source stream size : 6.60 MiB (14%)
Language : English
Encoded date : UTC 2013-09-11 10:35:45
Tagged date : UTC 2013-09-11 10:35:45

Barcode and Other Identifiers

  • Other (iTunes ID): 704319275
  • Other (musicload.de ID): 18823442_4



Schiller - Swan Lake
Ambient, Electro
Performer: Schiller
Album Title: Swan Lake
Label: Panorama ‎– none, We Love Music ‎– none
Type: File, AAC, MPEG-4 Video, 256 kbps
Country: Germany
Date of released: 11 Sep 2013
Category: Electronic
Style: Ambient, Electro
Rating: 3.7/5
Votes: 503
Other Formats: MPC MP1 DMF DXD TTA FLAC RA